<?xml version="1.0" standalone="no"?>
<!DOCTYPE svg PUBLIC "-//W3C//DTD SVG 1.1//EN" "http://www.w3.org/Graphics/SVG/1.1/DTD/svg11.dtd" >
<svg xmlns="http://www.w3.org/2000/svg">
<metadata>Generated by IcoMoon</metadata>
<defs>
<font id="magalu" horiz-adv-x="1024">
<font-face units-per-em="1024" ascent="960" descent="-64" />
<missing-glyph horiz-adv-x="1024" />
<glyph unicode="&#x20;" horiz-adv-x="512" d="" />
<glyph unicode="&#xe900;" glyph-name="checkmark, tick, correct, accept, ok" d="M397.434 42.304l-397.868 391.6 197.378 194.27 200.49-197.332 429.62 422.852 197.378-194.27-626.998-617.12zM107.912 433.904l289.524-284.962 518.656 510.482-89.036 87.632-429.62-422.852-200.49 197.334-89.034-87.634z" />
<glyph unicode="&#xe901;" glyph-name="checkmark1, tick1, correct1, accept1, ok1" d="M864 832l-480-480-224 224-160-160 384-384 640 640z" />
<glyph unicode="&#xe902;" glyph-name="exclamation-triangle, warning" d="M585.143 165.143v108.571c0 10.286-8 18.857-18.286 18.857h-109.714c-10.286 0-18.286-8.571-18.286-18.857v-108.571c0-10.286 8-18.857 18.286-18.857h109.714c10.286 0 18.286 8.571 18.286 18.857zM584 378.857l10.286 262.286c0 3.429-1.714 8-5.714 10.857-3.429 2.857-8.571 6.286-13.714 6.286h-125.714c-5.143 0-10.286-3.429-13.714-6.286-4-2.857-5.714-8.571-5.714-12l9.714-261.143c0-7.429 8.571-13.143 19.429-13.143h105.714c10.286 0 18.857 5.714 19.429 13.143zM576 912.571l438.857-804.571c12.571-22.286 12-49.714-1.143-72s-37.143-36-62.857-36h-877.714c-25.714 0-49.714 13.714-62.857 36s-13.714 49.714-1.143 72l438.857 804.571c12.571 23.429 37.143 38.286 64 38.286s51.429-14.857 64-38.286z" />
<glyph unicode="&#xe903;" glyph-name="Login" d="M512 960c-282.624 0-512-229.376-512-512s229.376-512 512-512c282.624 0 512 229.376 512 512s-229.376 512-512 512zM259.584 126.464c22.016 46.080 156.16 91.136 252.416 91.136s230.912-45.056 252.416-91.136c-69.632-55.296-157.184-88.064-252.416-88.064s-182.784 32.768-252.416 88.064zM837.632 200.704c-73.216 89.088-250.88 119.296-325.632 119.296s-252.416-30.208-325.632-119.296c-52.224 68.608-83.968 154.112-83.968 247.296 0 225.792 183.808 409.6 409.6 409.6s409.6-183.808 409.6-409.6c0-93.184-31.744-178.688-83.968-247.296v0zM512 755.2c-99.328 0-179.2-79.872-179.2-179.2s79.872-179.2 179.2-179.2c99.328 0 179.2 79.872 179.2 179.2s-79.872 179.2-179.2 179.2zM512 499.2c-42.496 0-76.8 34.304-76.8 76.8s34.304 76.8 76.8 76.8c42.496 0 76.8-34.304 76.8-76.8s-34.304-76.8-76.8-76.8z" />
<glyph unicode="&#xe904;" glyph-name="textsms" d="M853.333 874.667h-682.667c-46.933 0-85.333-38.4-85.333-85.333v-768l170.667 170.667h597.333c46.933 0 85.333 38.4 85.333 85.333v512c0 46.933-38.4 85.333-85.333 85.333zM853.333 277.333h-597.333l-85.333-85.333v597.333h682.667v-512zM298.667 576h85.333v-85.333h-85.333v85.333zM469.333 576h85.333v-85.333h-85.333v85.333zM640 576h85.333v-85.333h-85.333v85.333z" />
<glyph unicode="&#xe908;" glyph-name="arrow" d="M663.945 533.333l-263.92 263.92 120.68 120.68 469.94-469.939-469.94-469.942-120.68 120.682 263.933 263.933h-613.192v170.667h613.179z" />
<glyph unicode="&#xe909;" glyph-name="arrow-back" d="M360.055 362.667l263.92-263.92-120.68-120.68-469.94 469.939 469.94 469.942 120.68-120.682-263.933-263.933h613.192v-170.667h-613.179z" />
<glyph unicode="&#xe90a;" glyph-name="agenda" horiz-adv-x="878" d="M274.857 379.429h-74.285c-13 0-22.286 9.285-22.286 22.286v74.285c0 11.143 9.285 22.286 22.286 22.286h74.285c11.143 0 22.286-11.143 22.286-22.286v-74.285c0-13-11.143-22.286-22.286-22.286zM475.429 401.714c0-13-11.143-22.286-22.286-22.286h-74.285c-13 0-22.286 9.285-22.286 22.286v74.285c0 11.143 9.285 22.286 22.286 22.286h74.285c11.143 0 22.286-11.143 22.286-22.286v-74.285zM653.714 401.714c0-13-11.143-22.286-22.286-22.286h-74.285c-13 0-22.286 9.285-22.286 22.286v74.285c0 11.143 9.285 22.286 22.286 22.286h74.285c11.143 0 22.286-11.143 22.286-22.286v-74.285zM475.429 223.429c0-12.997-11.143-22.287-22.286-22.287h-74.285c-13 0-22.286 9.289-22.286 22.287v74.285c0 11.143 9.285 22.286 22.286 22.286h74.285c11.143 0 22.286-11.143 22.286-22.286v-74.285zM297.143 223.429c0-12.997-11.143-22.287-22.286-22.287h-74.285c-13 0-22.286 9.289-22.286 22.287v74.285c0 11.143 9.285 22.286 22.286 22.286h74.285c11.143 0 22.286-11.143 22.286-22.286v-74.285zM653.714 223.429c0-12.997-11.143-22.287-22.286-22.287h-74.285c-13 0-22.286 9.289-22.286 22.287v74.285c0 11.143 9.285 22.286 22.286 22.286h74.285c11.143 0 22.286-11.143 22.286-22.286v-74.285zM832 706.286v-653.711c0-50.147-40.858-89.147-89.147-89.147h-653.711c-50.143 0-89.143 39-89.143 89.147v653.711c0 48.286 39 89.143 89.143 89.143h89.143v96.571c0 11.143 9.285 22.286 22.286 22.286h74.285c11.143 0 22.286-11.143 22.286-22.286v-96.571h237.714v96.571c0 11.143 9.285 22.286 22.286 22.286h74.285c11.143 0 22.286-11.143 22.286-22.286v-96.571h89.139c48.289 0 89.147-40.857 89.147-89.143zM742.853 63.715v553.428h-653.711v-553.428c0-7.431 3.714-11.14 11.143-11.14h631.428c5.573 0 11.14 3.708 11.14 11.14z" />
<glyph unicode="&#xe90b;" glyph-name="magnifier" horiz-adv-x="945" d="M932.376 142.651l-184.075 184.072c-8.308 8.309-19.57 12.924-31.386 12.924h-30.095c50.957 65.174 81.236 147.15 81.236 236.325 0 212.139-171.889 384.028-384.028 384.028s-384.028-171.889-384.028-384.028c0-212.138 171.889-384.028 384.028-384.028 89.175 0 171.151 30.279 236.325 81.236v-30.095c0-11.816 4.615-23.079 12.924-31.386l184.072-184.075c17.361-17.353 45.418-17.353 62.59 0l52.256 52.248c17.353 17.361 17.353 45.418 0.181 62.779zM384.028 339.647c-130.533 0-236.325 105.608-236.325 236.325 0 130.533 105.607 236.325 236.325 236.325 130.532 0 236.325-105.607 236.325-236.325 0-130.532-105.608-236.325-236.325-236.325z" />
<glyph unicode="&#xe90c;" glyph-name="close" d="M495.652 920.522c-270.541 0-489.739-219.198-489.739-489.738s219.198-489.739 489.739-489.739c270.541 0 489.739 219.198 489.739 489.739s-219.198 489.738-489.739 489.738zM735.784 302.227c9.278-9.283 9.278-24.291 0-33.574l-78.202-78.002c-9.283-9.278-24.291-9.278-33.569 0l-128.361 129.545-128.556-129.545c-9.281-9.278-24.289-9.278-33.571 0l-78.003 78.202c-9.281 9.283-9.281 24.287 0 33.569l129.544 128.361-129.544 128.556c-9.281 9.281-9.281 24.29 0 33.571l78.201 78.201c9.281 9.281 24.289 9.281 33.571 0l128.358-129.742 128.557 129.544c9.283 9.281 24.291 9.281 33.569 0l78.202-78.2c9.283-9.281 9.283-24.29 0-33.571l-129.741-128.358 129.545-128.557z" />
<glyph unicode="&#xe90d;" glyph-name="burger" d="M85.598 719.767h891.426c18.938 0 34.291 17.542 34.291 39.184v97.959c0 21.642-15.354 39.184-34.291 39.184h-891.426c-18.936 0-34.286-17.542-34.286-39.184v-97.959c0-21.642 15.349-39.184 34.286-39.184zM85.598 327.93h891.426c18.938 0 34.291 17.542 34.291 39.184v97.959c0 21.642-15.354 39.184-34.291 39.184h-891.426c-18.936 0-34.286-17.542-34.286-39.184v-97.959c0-21.642 15.349-39.184 34.286-39.184zM85.598-63.904h891.426c18.938 0 34.291 17.542 34.291 39.181v97.958c0 21.645-15.354 39.187-34.291 39.187h-891.426c-18.936 0-34.286-17.542-34.286-39.187v-97.958c0-21.638 15.349-39.181 34.286-39.181z" />
<glyph unicode="&#xe90e;" glyph-name="chevron-right" d="M787.48 411.78l-425.851-428.040c-21.95-19.759-54.879-19.759-74.629 0l-50.49 50.49c-19.759 19.759-19.759 52.68 0 74.63l338.041 340.24-338.041 338.041c-19.759 21.95-19.759 54.881 0 74.629l50.49 50.491c19.759 19.759 52.679 19.759 74.629 0l425.851-428.041c19.759-19.759 19.759-52.681 0-72.44z" />
<glyph unicode="&#xe90f;" glyph-name="chevron-left" d="M236.52 484.22l425.851 428.040c21.95 19.759 54.879 19.759 74.629 0l50.49-50.49c19.759-19.759 19.759-52.68 0-74.63l-338.041-340.24 338.041-338.041c19.759-21.95 19.759-54.881 0-74.629l-50.49-50.491c-19.759-19.759-52.679-19.759-74.629 0l-425.851 428.041c-19.759 19.759-19.759 52.681 0 72.44z" />
<glyph unicode="&#xe910;" glyph-name="chevron-up" d="M548.22 723.48l428.040-425.851c19.759-21.95 19.759-54.879 0-74.629l-50.49-50.49c-19.759-19.759-52.68-19.759-74.63 0l-340.24 338.041-338.041-338.041c-21.95-19.759-54.881-19.759-74.629 0l-50.491 50.49c-19.759 19.759-19.759 52.679 0 74.629l428.041 425.851c19.759 19.759 52.681 19.759 72.44 0z" />
<glyph unicode="&#xe911;" glyph-name="chevron-down" d="M475.78 172.52l-428.040 425.851c-19.759 21.95-19.759 54.879 0 74.629l50.49 50.49c19.759 19.759 52.68 19.759 74.63 0l340.24-338.041 338.041 338.041c21.95 19.759 54.881 19.759 74.629 0l50.491-50.49c19.759-19.759 19.759-52.679 0-74.629l-428.041-425.851c-19.759-19.759-52.681-19.759-72.44 0z" />
<glyph unicode="&#xe912;" glyph-name="eye-strike" horiz-adv-x="1365" d="M1291.605 18.031l-1195.963 934.949c-3.28 2.626-7.046 4.581-11.082 5.752s-8.262 1.536-12.439 1.073c-4.177-0.462-8.221-1.743-11.903-3.769s-6.929-4.756-9.555-8.037l-19.999-24.979c-2.633-3.281-4.592-7.050-5.767-11.089s-1.541-8.271-1.079-12.453c0.463-4.181 1.745-8.23 3.774-11.916s4.765-6.934 8.051-9.561l1195.963-934.954c3.277-2.62 7.049-4.582 11.085-5.751s8.26-1.536 12.433-1.075c4.181 0.469 8.226 1.749 11.904 3.772 3.686 2.022 6.929 4.753 9.557 8.038l20.002 24.977c2.628 3.285 4.591 7.049 5.76 11.093 1.178 4.036 1.545 8.269 1.084 12.45s-1.749 8.226-3.772 11.913c-2.031 3.686-4.77 6.938-8.055 9.566zM617.207 667.069l269.569-210.753c-4.437 119.876-102.194 215.693-223.15 215.693-15.603-0.029-31.159-1.684-46.419-4.94zM710.043 228.943l-269.571 210.754c4.46-119.857 102.217-215.674 223.153-215.674 15.601 0.033 31.157 1.683 46.418 4.92zM663.625 736.007c197.294 0 378.167-109.996 475.848-287.991-23.945-43.806-53.53-84.283-87.996-120.396l75.477-58.999c42.018 44.955 77.619 95.506 105.796 150.216 4.574 9.050 6.955 19.049 6.955 29.189s-2.381 20.14-6.955 29.189c-108.561 211.614-323.277 354.79-569.126 354.79-73.398 0-143.416-14-209.254-37.619l92.818-72.578c37.879 8.6 76.677 14.199 116.436 14.199zM663.625 160.025c-197.294 0-378.149 109.996-475.846 287.991 23.975 43.806 53.594 84.277 88.097 120.376l-75.477 58.999c-42.016-44.948-77.612-95.492-105.777-150.195-4.576-9.050-6.959-19.049-6.959-29.189s2.383-20.14 6.959-29.189c108.456-211.614 323.17-354.791 569.003-354.791 73.398 0 143.415 14.106 209.249 37.623l-92.813 72.555c-37.879-8.579-76.658-14.179-116.436-14.179z" />
<glyph unicode="&#xe913;" glyph-name="user1" horiz-adv-x="878" d="M581.286 349.714c137.428 0 250.714-113.286 250.714-250.715v-46.424c0-50.147-40.858-89.147-89.147-89.147h-653.711c-50.143 0-89.143 39-89.143 89.147v46.424c0 137.43 111.429 250.715 248.857 250.715 53.857 0 78-29.714 167.143-29.714 87.286 0 111.429 29.714 165.286 29.714zM742.853 52.575v46.424c0 89.147-72.425 161.573-161.567 161.573-27.857 0-70.572-29.714-165.286-29.714-96.571 0-139.286 29.714-167.143 29.714-89.143 0-159.714-72.426-159.714-161.573v-46.424h653.711zM416 379.429c-148.571 0-267.429 118.857-267.429 267.429 0 146.714 118.857 267.429 267.429 267.429 146.714 0 267.429-120.714 267.429-267.429 0-148.571-120.714-267.429-267.429-267.429zM416 825.143c-98.428 0-178.286-81.714-178.286-178.286 0-98.428 79.857-178.286 178.286-178.286 96.571 0 178.286 79.857 178.286 178.286 0 96.571-81.714 178.286-178.286 178.286z" />
<glyph unicode="&#xe914;" glyph-name="help" d="M469.333 192h85.333v85.333h-85.333v-85.333zM512 874.667c-235.52 0-426.667-191.147-426.667-426.667s191.147-426.667 426.667-426.667c235.52 0 426.667 191.147 426.667 426.667s-191.147 426.667-426.667 426.667zM512 106.667c-188.16 0-341.333 153.173-341.333 341.333s153.173 341.333 341.333 341.333c188.16 0 341.333-153.173 341.333-341.333s-153.173-341.333-341.333-341.333zM512 704c-94.293 0-170.667-76.373-170.667-170.667h85.333c0 46.933 38.4 85.333 85.333 85.333s85.333-38.4 85.333-85.333c0-85.333-128-74.667-128-213.333h85.333c0 96 128 106.667 128 213.333 0 94.293-76.373 170.667-170.667 170.667z" />
<glyph unicode="&#xe915;" glyph-name="headset" d="M417.972 538c0 33.132-26.868 60-60 60h-30c-66.281 0-120-53.719-120-120v-90c0-66.281 53.719-120 120-120h30c33.132 0 60 26.868 60 60v210zM747.974 268c66.278 0 120 53.719 120 120v90c0 66.281-53.722 120-120 120h-30.003c-33.133 0-60-26.868-60-60v-210c0-33.132 26.867-60 60-60h30.003zM537.972 928c-267.788 0-471.412-222.806-480-480v-30c0-16.575 13.425-30 30-30h30c16.575 0 30 13.425 30 30v30c0 215.044 174.956 390 390 390s390.002-174.956 390.002-390h-0.224c0.147-4.556 0.224-310.726 0.224-310.726 0-43.782-35.494-79.277-79.277-79.277h-190.726c0 49.709-40.292 90.003-89.999 90.003h-60c-49.706 0-90-40.294-90-90.003 0-49.702 40.294-89.997 90-89.997h340.725c93.485 0 169.274 75.789 169.274 169.274v310.726c-8.589 257.194-212.211 480-479.999 480z" />
<glyph unicode="&#xe916;" glyph-name="home" horiz-adv-x="1396" d="M704.3 693.118c4.582 4.582 11.454 6.872 18.327 6.872 4.582 0 11.454-2.29 16.035-6.872l423.804-345.915v-375.696c0-20.614-18.327-36.653-36.653-36.653h-258.864c-18.327 0-36.653 16.039-36.653 36.653v219.92c0 18.327-16.035 36.653-36.653 36.653h-146.613c-18.327 0-36.653-18.327-36.653-36.653v-219.92c0-20.614-16.035-36.653-34.362-36.653h-256.573c-20.618 0-36.653 16.039-36.653 36.653v373.405l421.513 348.206zM1370.93 457.163c6.871-4.581 11.455-13.745 11.455-20.618s-2.287-13.744-6.871-18.327l-59.564-71.015c-4.584-6.872-11.455-9.163-20.614-9.163-6.871 0-13.743 2.291-18.327 6.872l-538.348 442.13c-4.581 4.581-11.453 6.872-16.035 6.872-6.872 0-13.744-2.291-18.327-6.872l-538.345-442.13c-4.582-4.581-11.454-6.872-18.327-6.872-9.163 0-16.036 2.291-20.618 9.163l-59.561 71.015c-2.291 4.582-6.873 11.454-6.873 18.327s4.582 16.036 11.454 20.618l579.58 478.783c18.327 13.745 43.525 22.908 71.015 22.908 25.199 0 50.398-9.163 68.724-22.908l206.175-169.522v164.94c0 16.036 11.455 27.49 27.494 27.49h128.277c13.752 0 27.494-11.454 27.494-27.49v-316.135l190.138-158.068z" />
<glyph unicode="&#xe917;" glyph-name="accessibility" d="M874.667 704c-111.36-29.867-241.92-42.667-362.667-42.667s-251.307 12.8-362.667 42.667l-21.333-85.333c79.36-21.333 170.667-35.413 256-42.667v-554.667h85.333v256h85.333v-256h85.333v554.667c85.333 7.253 176.64 21.333 256 42.667l-21.333 85.333zM512 704c46.933 0 85.333 38.4 85.333 85.333s-38.4 85.333-85.333 85.333c-46.933 0-85.333-38.4-85.333-85.333s38.4-85.333 85.333-85.333z" />
<glyph unicode="&#xe918;" glyph-name="xmark" horiz-adv-x="1103" d="M91.497 67.616c-24.923-24.93-26.11-69.435 0.593-95.539 26.11-26.112 70.615-25.521 95.538-0.599l363.165 363.761 363.757-363.761c25.521-25.513 69.427-25.513 95.539 0.599 25.513 26.703 26.112 70.018 0 95.539l-363.164 363.755 363.164 363.165c26.112 25.517 26.112 69.429 0 95.539-26.703 25.516-70.018 26.11-95.539 0.593l-363.757-363.758-363.165 363.758c-24.923 24.923-70.022 26.11-95.538-0.593-26.11-26.11-25.516-70.615-0.593-95.539l363.758-363.165-363.758-363.755z" />
<glyph unicode="&#xe919;" glyph-name="plus" d="M113.058 406.571h336.122v-336.12c0-34.165 28.102-62.815 62.817-62.815s62.816 28.65 62.816 62.815v336.12h336.124c34.165 0 62.815 28.102 62.815 62.817s-28.65 62.817-62.815 62.817h-336.124v336.122c0 34.163-28.101 62.816-62.816 62.816s-62.817-28.653-62.817-62.816v-336.122h-336.122c-34.164 0-62.817-28.102-62.817-62.817s28.653-62.817 62.817-62.817z" />
<glyph unicode="&#xe91a;" glyph-name="info" d="M512 960c-282.784 0-512-229.248-512-512s229.216-512 512-512 512 229.248 512 512c0 282.752-229.216 512-512 512zM512 768c35.328 0 64-28.672 64-64s-28.672-64-64-64-64 28.672-64 64 28.672 64 64 64zM352 192l96 64h64v256h-64l-32 64h160v-320h64l96-64h-384z" />
<glyph unicode="&#xe91b;" glyph-name="file_copy" d="M598 426.667h234l-234 234v-234zM640 724.667l256-256v-426q0-34-26-60t-60-26h-470q-34 0-59 26t-25 60v598q0 34 26 59t60 25h298zM682 896.667v-86h-512v-598h-84v598q0 34 25 60t59 26h512z" />
</font>
</defs>
</svg>
